  0
SECTION
  2
HEADER
  9
$ACADVER
  1
AC1014
  9
$ACADMAINTVER
 70
     9
  9
$DWGCODEPAGE
  3
ANSI_1252
  9
$INSBASE
 10
0.0
 20
0.0
 30
0.0
  9
$EXTMIN
 10
4.231603659741312
 20
3.873052275480917
 30
0.0
  9
$EXTMAX
 10
8.45936296120462
 20
8.073859344849822
 30
0.0
  9
$LIMMIN
 10
0.0
 20
0.0
  9
$LIMMAX
 10
12.0
 20
9.0
  9
$ORTHOMODE
 70
     1
  9
$REGENMODE
 70
     1
  9
$FILLMODE
 70
     1
  9
$QTEXTMODE
 70
     0
  9
$MIRRTEXT
 70
     1
  9
$DRAGMODE
 70
     2
  9
$LTSCALE
 40
1.0
  9
$OSMODE
 70
     0
  9
$ATTMODE
 70
     1
  9
$TEXTSIZE
 40
0.2
  9
$TRACEWID
 40
0.05
  9
$TEXTSTYLE
  7
STANDARD
  9
$CLAYER
  8
0
  9
$CELTYPE
  6
BYLAYER
  9
$CECOLOR
 62
   256
  9
$CELTSCALE
 40
1.0
  9
$DELOBJ
 70
     1
  9
$DISPSILH
 70
     0
  9
$DIMSCALE
 40
1.0
  9
$DIMASZ
 40
0.18
  9
$DIMEXO
 40
0.0625
  9
$DIMDLI
 40
0.38
  9
$DIMRND
 40
0.0
  9
$DIMDLE
 40
0.0
  9
$DIMEXE
 40
0.18
  9
$DIMTP
 40
0.0
  9
$DIMTM
 40
0.0
  9
$DIMTXT
 40
0.18
  9
$DIMCEN
 40
0.09
  9
$DIMTSZ
 40
0.0
  9
$DIMTOL
 70
     0
  9
$DIMLIM
 70
     0
  9
$DIMTIH
 70
     1
  9
$DIMTOH
 70
     1
  9
$DIMSE1
 70
     0
  9
$DIMSE2
 70
     0
  9
$DIMTAD
 70
     0
  9
$DIMZIN
 70
     0
  9
$DIMBLK
  1

  9
$DIMASO
 70
     1
  9
$DIMSHO
 70
     1
  9
$DIMPOST
  1

  9
$DIMAPOST
  1

  9
$DIMALT
 70
     0
  9
$DIMALTD
 70
     2
  9
$DIMALTF
 40
25.4
  9
$DIMLFAC
 40
1.0
  9
$DIMTOFL
 70
     0
  9
$DIMTVP
 40
0.0
  9
$DIMTIX
 70
     0
  9
$DIMSOXD
 70
     0
  9
$DIMSAH
 70
     0
  9
$DIMBLK1
  1

  9
$DIMBLK2
  1

  9
$DIMSTYLE
  2
STANDARD
  9
$DIMCLRD
 70
     0
  9
$DIMCLRE
 70
     0
  9
$DIMCLRT
 70
     0
  9
$DIMTFAC
 40
1.0
  9
$DIMGAP
 40
0.09
  9
$DIMJUST
 70
     0
  9
$DIMSD1
 70
     0
  9
$DIMSD2
 70
     0
  9
$DIMTOLJ
 70
     1
  9
$DIMTZIN
 70
     0
  9
$DIMALTZ
 70
     0
  9
$DIMALTTZ
 70
     0
  9
$DIMFIT
 70
     3
  9
$DIMUPT
 70
     0
  9
$DIMUNIT
 70
     2
  9
$DIMDEC
 70
     2
  9
$DIMTDEC
 70
     2
  9
$DIMALTU
 70
     2
  9
$DIMALTTD
 70
     2
  9
$DIMTXSTY
  7
STANDARD
  9
$DIMAUNIT
 70
     0
  9
$LUNITS
 70
     2
  9
$LUPREC
 70
     4
  9
$SKETCHINC
 40
0.1
  9
$FILLETRAD
 40
0.5
  9
$AUNITS
 70
     0
  9
$AUPREC
 70
     0
  9
$MENU
  1
.
  9
$ELEVATION
 40
0.0
  9
$PELEVATION
 40
0.0
  9
$THICKNESS
 40
0.0
  9
$LIMCHECK
 70
     0
  9
$BLIPMODE
 70
     0
  9
$CHAMFERA
 40
0.5
  9
$CHAMFERB
 40
0.5
  9
$CHAMFERC
 40
1.0
  9
$CHAMFERD
 40
0.0
  9
$SKPOLY
 70
     0
  9
$TDCREATE
 40
2452181.636740046
  9
$TDUPDATE
 40
2452643.324223727
  9
$TDINDWG
 40
0.0035262731
  9
$TDUSRTIMER
 40
0.0035262731
  9
$USRTIMER
 70
     1
  9
$ANGBASE
 50
0.0
  9
$ANGDIR
 70
     0
  9
$PDMODE
 70
     0
  9
$PDSIZE
 40
0.0
  9
$PLINEWID
 40
0.0
  9
$COORDS
 70
     1
  9
$SPLFRAME
 70
     0
  9
$SPLINETYPE
 70
     6
  9
$SPLINESEGS
 70
     8
  9
$ATTDIA
 70
     1
  9
$ATTREQ
 70
     1
  9
$HANDLING
 70
-16383
  9
$HANDSEED
  5
37D
  9
$SURFTAB1
 70
     6
  9
$SURFTAB2
 70
     6
  9
$SURFTYPE
 70
     6
  9
$SURFU
 70
     6
  9
$SURFV
 70
     6
  9
$UCSNAME
  2

  9
$UCSORG
 10
0.0
 20
0.0
 30
0.0
  9
$UCSXDIR
 10
1.0
 20
0.0
 30
0.0
  9
$UCSYDIR
 10
0.0
 20
1.0
 30
0.0
  9
$PUCSNAME
  2

  9
$PUCSORG
 10
0.0
 20
0.0
 30
0.0
  9
$PUCSXDIR
 10
1.0
 20
0.0
 30
0.0
  9
$PUCSYDIR
 10
0.0
 20
1.0
 30
0.0
  9
$USERI1
 70
     0
  9
$USERI2
 70
     0
  9
$USERI3
 70
     0
  9
$USERI4
 70
     0
  9
$USERI5
 70
     0
  9
$USERR1
 40
0.0
  9
$USERR2
 40
0.0
  9
$USERR3
 40
0.0
  9
$USERR4
 40
0.0
  9
$USERR5
 40
0.0
  9
$WORLDVIEW
 70
     1
  9
$SHADEDGE
 70
     3
  9
$SHADEDIF
 70
    70
  9
$TILEMODE
 70
     1
  9
$MAXACTVP
 70
    64
  9
$PINSBASE
 10
0.0
 20
0.0
 30
0.0
  9
$PLIMCHECK
 70
     0
  9
$PEXTMIN
 10
1.000000000000000E+20
 20
1.000000000000000E+20
 30
1.000000000000000E+20
  9
$PEXTMAX
 10
-1.000000000000000E+20
 20
-1.000000000000000E+20
 30
-1.000000000000000E+20
  9
$PLIMMIN
 10
0.0
 20
0.0
  9
$PLIMMAX
 10
12.0
 20
9.0
  9
$UNITMODE
 70
     0
  9
$VISRETAIN
 70
     1
  9
$PLINEGEN
 70
     0
  9
$PSLTSCALE
 70
     1
  9
$TREEDEPTH
 70
  3020
  9
$PICKSTYLE
 70
     1
  9
$CMLSTYLE
  2
STANDARD
  9
$CMLJUST
 70
     0
  9
$CMLSCALE
 40
1.0
  9
$PROXYGRAPHICS
 70
     1
  9
$MEASUREMENT
 70
     0
  0
ENDSEC
  0
SECTION
  2
CLASSES
  0
CLASS
  1
ACDBDICTIONARYWDFLT
  2
AcDbDictionaryWithDefault
  3
AutoCAD 2000
 90
        0
280
     0
281
     0
  0
CLASS
  1
ACDBPLACEHOLDER
  2
AcDbPlaceHolder
  3
AutoCAD 2000
 90
        0
280
     0
281
     0
  0
CLASS
  1
LAYOUT
  2
AcDbLayout
  3
AutoCAD 2000
 90
        0
280
     0
281
     0
  0
CLASS
  1
LONG_TRANSACTION
  2
AcDbLongTransaction
  3
AutoCAD 2000
 90
        0
280
     0
281
     0
  0
CLASS
  1
LWPOLYLINE
  2
AcDbPolyline
  3
AutoCAD 2000
 90
        0
280
     0
281
     1
  0
CLASS
  1
HATCH
  2
AcDbHatch
  3
AutoCAD 2000
 90
        0
280
     0
281
     1
  0
CLASS
  1
XRECORD
  2
AcDbXrecord
  3
AutoCAD 2000
 90
        0
280
     0
281
     0
  0
ENDSEC
  0
SECTION
  2
TABLES
  0
TABLE
  2
VPORT
  5
8
330
0
100
AcDbSymbolTable
 70
     5
  0
VPORT
  5
356
330
8
100
AcDbSymbolTableRecord
100
AcDbViewportTableRecord
  2
*ACTIVE
 70
     0
 10
0.0
 20
0.0
 11
1.0
 21
1.0
 12
6.374220816437214
 22
5.848279101805506
 13
0.0
 23
0.0
 14
0.5
 24
0.5
 15
0.5
 25
0.5
 16
0.0
 26
0.0
 36
1.0
 17
0.0
 27
0.0
 37
0.0
 40
8.566301123908992
 41
1.462515883100381
 42
50.0
 43
0.0
 44
0.0
 50
0.0
 51
0.0
 71
     0
 72
   100
 73
     1
 74
     3
 75
     0
 76
     0
 77
     0
 78
     0
  0
ENDTAB
  0
TABLE
  2
LTYPE
  5
5
330
0
100
AcDbSymbolTable
 70
     1
  0
LTYPE
  5
14
330
5
100
AcDbSymbolTableRecord
100
AcDbLinetypeTableRecord
  2
BYBLOCK
 70
     0
  3

 72
    65
 73
     0
 40
0.0
  0
LTYPE
  5
15
330
5
100
AcDbSymbolTableRecord
100
AcDbLinetypeTableRecord
  2
BYLAYER
 70
     0
  3

 72
    65
 73
     0
 40
0.0
  0
LTYPE
  5
16
330
5
100
AcDbSymbolTableRecord
100
AcDbLinetypeTableRecord
  2
CONTINUOUS
 70
     0
  3
Solid line
 72
    65
 73
     0
 40
0.0
  0
ENDTAB
  0
TABLE
  2
LAYER
  5
2
330
0
100
AcDbSymbolTable
 70
     4
  0
LAYER
  5
10
330
2
100
AcDbSymbolTableRecord
100
AcDbLayerTableRecord
  2
0
 70
     0
 62
     7
  6
CONTINUOUS
  0
LAYER
  5
34
330
2
100
AcDbSymbolTableRecord
100
AcDbLayerTableRecord
  2
L
 70
     0
 62
     7
  6
CONTINUOUS
  0
LAYER
  5
45
330
2
100
AcDbSymbolTableRecord
100
AcDbLayerTableRecord
  2
DEFPOINTS
 70
     0
 62
     7
  6
CONTINUOUS
  0
LAYER
  5
88
330
2
100
AcDbSymbolTableRecord
100
AcDbLayerTableRecord
  2
TX
 70
     0
 62
   150
  6
CONTINUOUS
  0
ENDTAB
  0
TABLE
  2
STYLE
  5
3
330
0
100
AcDbSymbolTable
 70
     3
  0
STYLE
  5
11
330
3
100
AcDbSymbolTableRecord
100
AcDbTextStyleTableRecord
  2
STANDARD
 70
     0
 40
0.0
 41
1.0
 50
0.0
 71
     0
 42
0.2
  3
txt
  4

  0
STYLE
  5
35
330
3
100
AcDbSymbolTableRecord
100
AcDbTextStyleTableRecord
  2
REG
 70
     0
 40
0.0
 41
1.0
 50
0.0
 71
     0
 42
0.09375
  3
E:\R13\com\fonts\ARCHITXT.SHX
  4

  0
STYLE
  5
36
330
3
100
AcDbSymbolTableRecord
100
AcDbTextStyleTableRecord
  2
DIMTXT
 70
     0
 40
0.0
 41
1.0
 50
0.0
 71
     0
 42
1.125
  3
archt.shx
  4

  0
ENDTAB
  0
TABLE
  2
VIEW
  5
6
330
0
100
AcDbSymbolTable
 70
     0
  0
ENDTAB
  0
TABLE
  2
UCS
  5
7
330
0
100
AcDbSymbolTable
 70
     0
  0
ENDTAB
  0
TABLE
  2
APPID
  5
9
330
0
100
AcDbSymbolTable
 70
     1
  0
APPID
  5
12
330
9
100
AcDbSymbolTableRecord
100
AcDbRegAppTableRecord
  2
ACAD
 70
     0
  0
ENDTAB
  0
TABLE
  2
DIMSTYLE
  5
A
330
0
100
AcDbSymbolTable
 70
     6
  0
DIMSTYLE
105
27
102
{ACAD_REACTORS
330
C1
330
CF
102
}
330
A
100
AcDbSymbolTableRecord
100
AcDbDimStyleTableRecord
  2
STANDARD
 70
     0
  3

  4

  5

  6

  7

 40
1.0
 41
0.18
 42
0.0625
 43
0.38
 44
0.18
 45
0.0
 46
0.0
 47
0.0
 48
0.0
140
0.18
141
0.09
142
0.0
143
25.4
144
1.0
145
0.0
146
1.0
147
0.09
 71
     0
 72
     0
 73
     1
 74
     1
 75
     0
 76
     0
 77
     0
 78
     0
170
     0
171
     2
172
     0
173
     0
174
     0
175
     0
176
     0
177
     0
178
     0
270
     2
271
     2
272
     2
273
     2
274
     2
340
11
275
     0
280
     0
281
     0
282
     0
283
     1
284
     0
285
     0
286
     0
287
     3
288
     0
  0
DIMSTYLE
105
37
330
A
100
AcDbSymbolTableRecord
100
AcDbDimStyleTableRecord
  2
1
 70
     0
  3

  4

  5

  6

  7

 40
1.0
 41
1.125
 42
0.5
 43
0.375
 44
1.19921875
 45
0.0
 46
0.5
 47
0.0
 48
0.0
140
1.125
141
0.125
142
0.0
143
25.4
144
1.0
145
0.0
146
0.8
147
0.5625
 71
     0
 72
     0
 73
     0
 74
     0
 75
     0
 76
     0
 77
     1
 78
     3
170
     0
171
     2
172
     1
173
     0
174
     1
175
     0
176
   133
177
   133
178
   150
270
     2
271
     3
272
     3
273
     2
274
     2
340
36
275
     0
280
     0
281
     0
282
     0
283
     1
284
     0
285
     0
286
     0
287
     4
288
     0
  0
DIMSTYLE
105
38
330
A
100
AcDbSymbolTableRecord
100
AcDbDimStyleTableRecord
  2
1$2
 70
     0
  3

  4

  5
DOTSMALL
  6

  7

 40
1.0
 41
1.5
 42
0.5
 43
0.375
 44
1.19921875
 45
0.0
 46
0.5
 47
0.0
 48
0.0
140
0.75
141
0.125
142
0.0
143
25.4
144
1.0
145
0.0
146
0.8
147
0.5625
 71
     0
 72
     0
 73
     0
 74
     0
 75
     0
 76
     0
 77
     1
 78
     3
170
     0
171
     2
172
     1
173
     0
174
     1
175
     0
176
   133
177
   133
178
   150
270
     2
271
     3
272
     3
273
     2
274
     2
340
36
275
     0
280
     0
281
     0
282
     0
283
     1
284
     0
285
     0
286
     0
287
     4
288
     0
  0
DIMSTYLE
105
39
330
A
100
AcDbSymbolTableRecord
100
AcDbDimStyleTableRecord
  2
1$4
 70
     0
  3

  4

  5

  6

  7
DOTSMALL
 40
1.0
 41
1.5
 42
0.5
 43
0.375
 44
1.19921875
 45
0.0
 46
0.5
 47
0.0
 48
0.0
140
0.75
141
0.125
142
0.0
143
25.4
144
1.0
145
0.0
146
0.8
147
0.5625
 71
     0
 72
     0
 73
     0
 74
     0
 75
     0
 76
     0
 77
     1
 78
     3
170
     0
171
     2
172
     1
173
     1
174
     1
175
     0
176
   133
177
   133
178
   150
270
     2
271
     3
272
     3
273
     2
274
     2
340
36
275
     0
280
     0
281
     0
282
     0
283
     1
284
     0
285
     0
286
     0
287
     4
288
     0
  0
DIMSTYLE
105
3A
330
A
100
AcDbSymbolTableRecord
100
AcDbDimStyleTableRecord
  2
1$3
 70
     0
  3

  4

  5
DOTSMALL
  6

  7

 40
1.0
 41
1.5
 42
0.5
 43
0.375
 44
1.19921875
 45
0.0
 46
0.5
 47
0.0
 48
0.0
140
0.75
141
0.125
142
0.0
143
25.4
144
1.0
145
0.0
146
0.8
147
0.5625
 71
     0
 72
     0
 73
     0
 74
     0
 75
     0
 76
     0
 77
     1
 78
     3
170
     0
171
     2
172
     1
173
     0
174
     1
175
     0
176
   133
177
   133
178
   150
270
     2
271
     3
272
     3
273
     2
274
     2
340
36
275
     0
280
     0
281
     0
282
     0
283
     1
284
     0
285
     0
286
     0
287
     4
288
     0
  0
DIMSTYLE
105
3B
330
A
100
AcDbSymbolTableRecord
100
AcDbDimStyleTableRecord
  2
1$7
 70
     0
  3

  4

  5

  6

  7

 40
1.0
 41
1.0
 42
0.5
 43
0.375
 44
1.19921875
 45
0.0
 46
0.5
 47
0.0
 48
0.0
140
0.75
141
0.125
142
0.0
143
25.4
144
1.0
145
0.0
146
0.8
147
0.5625
 71
     0
 72
     0
 73
     0
 74
     0
 75
     0
 76
     0
 77
     1
 78
     3
170
     0
171
     2
172
     1
173
     0
174
     1
175
     0
176
   133
177
   133
178
   150
270
     2
271
     3
272
     3
273
     2
274
     2
340
36
275
     0
280
     0
281
     0
282
     0
283
     1
284
     0
285
     0
286
     0
287
     4
288
     0
  0
ENDTAB
  0
TABLE
  2
BLOCK_RECORD
  5
1
330
0
100
AcDbSymbolTable
 70
     7
  0
BLOCK_RECORD
  5
1F
102
{ACAD_XDICTIONARY
360
379
102
}
330
1
100
AcDbSymbolTableRecord
100
AcDbBlockTableRecord
  2
*MODEL_SPACE
  0
BLOCK_RECORD
  5
1B
102
{ACAD_XDICTIONARY
360
377
102
}
330
1
100
AcDbSymbolTableRecord
100
AcDbBlockTableRecord
  2
*PAPER_SPACE
  0
BLOCK_RECORD
  5
2B
330
1
100
AcDbSymbolTableRecord
100
AcDbBlockTableRecord
  2
_DOT
  0
BLOCK_RECORD
  5
30
330
1
100
AcDbSymbolTableRecord
100
AcDbBlockTableRecord
  2
_DOTSMALL
  0
BLOCK_RECORD
  5
C2
330
1
100
AcDbSymbolTableRecord
100
AcDbBlockTableRecord
  2
*D3
  0
BLOCK_RECORD
  5
D0
330
1
100
AcDbSymbolTableRecord
100
AcDbBlockTableRecord
  2
*D4
  0
ENDTAB
  0
ENDSEC
  0
SECTION
  2
BLOCKS
  0
BLOCK
  5
20
330
1F
100
AcDbEntity
  8
0
100
AcDbBlockBegin
  2
*MODEL_SPACE
 70
     0
 10
0.0
 20
0.0
 30
0.0
  3
*MODEL_SPACE
  1

  0
ENDBLK
  5
21
330
1F
100
AcDbEntity
  8
0
100
AcDbBlockEnd
  0
BLOCK
  5
1C
330
1B
100
AcDbEntity
 67
     1
  8
0
100
AcDbBlockBegin
  2
*PAPER_SPACE
 70
     0
 10
0.0
 20
0.0
 30
0.0
  3
*PAPER_SPACE
  1

  0
ENDBLK
  5
1D
330
1B
100
AcDbEntity
 67
     1
  8
0
100
AcDbBlockEnd
  0
BLOCK
  5
2E
330
2B
100
AcDbEntity
  8
0
100
AcDbBlockBegin
  2
_DOT
 70
     0
 10
0.0
 20
0.0
 30
0.0
  3
_DOT
  1

  0
LWPOLYLINE
  5
2C
330
2B
100
AcDbEntity
  8
L
 62
     0
100
AcDbPolyline
 90
        2
 70
     1
 43
0.5
 10
-0.25
 20
0.0
 42
1.0
 10
0.25
 20
0.0
 42
1.0
  0
LINE
  5
2D
330
2B
100
AcDbEntity
  8
L
 62
     0
100
AcDbLine
 10
-0.5
 20
0.0
 30
0.0
 11
-1.0
 21
0.0
 31
0.0
  0
ENDBLK
  5
2F
330
2B
100
AcDbEntity
  8
0
100
AcDbBlockEnd
  0
BLOCK
  5
32
330
30
100
AcDbEntity
  8
0
 48
0.116666
100
AcDbBlockBegin
  2
_DOTSMALL
 70
     0
 10
0.0
 20
0.0
 30
0.0
  3
_DOTSMALL
  1

  0
LWPOLYLINE
  5
31
330
30
100
AcDbEntity
  8
0
  6
BYBLOCK
 62
     0
100
AcDbPolyline
 90
        2
 70
     1
 43
0.5
 10
-0.0625
 20
0.0
 42
1.0
 10
0.0625
 20
0.0
 42
1.0
  0
ENDBLK
  5
33
330
30
100
AcDbEntity
  8
0
 48
0.116666
100
AcDbBlockEnd
  0
BLOCK
  5
CD
330
C2
100
AcDbEntity
  8
0
100
AcDbBlockBegin
  2
*D3
 70
     1
 10
0.0
 20
0.0
 30
0.0
  3
*D3
  1

  0
LINE
  5
C3
330
C2
100
AcDbEntity
  8
0
 62
     0
100
AcDbLine
 10
5.101653732903635
 20
7.421040718807997
 30
0.0
 11
4.321603659741314
 21
7.421040718807997
 31
0.0
  0
LINE
  5
C4
330
C2
100
AcDbEntity
  8
0
 62
     0
100
AcDbLine
 10
5.101653732903635
 20
5.166040718808002
 30
0.0
 11
4.321603659741313
 21
5.166040718808002
 31
0.0
  0
LINE
  5
C5
330
C2
100
AcDbEntity
  8
0
 62
     0
100
AcDbLine
 10
4.501603659741314
 20
7.241040718807997
 30
0.0
 11
4.501603659741314
 21
6.473540718807999
 31
0.0
  0
LINE
  5
C6
330
C2
100
AcDbEntity
  8
0
 62
     0
100
AcDbLine
 10
4.501603659741313
 20
5.346040718808001
 30
0.0
 11
4.501603659741314
 21
6.113540718808
 31
0.0
  0
SOLID
  5
C7
330
C2
100
AcDbEntity
  8
0
 62
     0
100
AcDbTrace
 10
4.471603659741314
 20
7.241040718807997
 30
0.0
 11
4.531603659741314
 21
7.241040718807997
 31
0.0
 12
4.501603659741314
 22
7.421040718807997
 32
0.0
 13
4.501603659741314
 23
7.421040718807997
 33
0.0
  0
SOLID
  5
C8
330
C2
100
AcDbEntity
  8
0
 62
     0
100
AcDbTrace
 10
4.471603659741313
 20
5.346040718808001
 30
0.0
 11
4.531603659741313
 21
5.346040718808001
 31
0.0
 12
4.501603659741313
 22
5.166040718808002
 32
0.0
 13
4.501603659741313
 23
5.166040718808002
 33
0.0
  0
MTEXT
  5
C9
330
C2
100
AcDbEntity
  8
0
 62
     0
100
AcDbMText
 10
4.501603659741312
 20
6.293540718808
 30
0.0
 40
0.18
 41
0.0
 71
     5
 72
     1
  1
\A1;2.26
1001
ACAD
1000
MTEXTBEGIN
1070
    73
1070
     1
1070
    44
1040
1.0
1070
    74
1070
     0
1000
MTEXTEND
  0
POINT
  5
CA
330
C2
100
AcDbEntity
  8
DEFPOINTS
 62
     0
100
AcDbPoint
 10
5.164153732903635
 20
7.421040718807997
 30
0.0
  0
POINT
  5
CB
330
C2
100
AcDbEntity
  8
DEFPOINTS
 62
     0
100
AcDbPoint
 10
5.164153732903635
 20
5.166040718808002
 30
0.0
  0
POINT
  5
CC
330
C2
100
AcDbEntity
  8
DEFPOINTS
 62
     0
100
AcDbPoint
 10
4.501603659741313
 20
5.166040718808002
 30
0.0
  0
ENDBLK
  5
CE
330
C2
100
AcDbEntity
  8
0
100
AcDbBlockEnd
  0
BLOCK
  5
DB
330
D0
100
AcDbEntity
  8
0
100
AcDbBlockBegin
  2
*D4
 70
     1
 10
0.0
 20
0.0
 30
0.0
  3
*D4
  1

  0
LINE
  5
D1
330
D0
100
AcDbEntity
  8
0
 62
     0
100
AcDbLine
 10
5.144153732903653
 20
7.463540718808015
 30
0.0
 11
5.144153732903653
 21
8.073859344849822
 31
0.0
  0
LINE
  5
D2
330
D0
100
AcDbEntity
  8
0
 62
     0
100
AcDbLine
 10
8.44623676559275
 20
6.816716888907436
 30
0.0
 11
8.44623676559275
 21
8.073859344849822
 31
0.0
  0
LINE
  5
D3
330
D0
100
AcDbEntity
  8
0
 62
     0
100
AcDbLine
 10
5.324153732903653
 20
7.893859344849822
 30
0.0
 11
6.450195249248202
 21
7.893859344849822
 31
0.0
  0
LINE
  5
D4
330
D0
100
AcDbEntity
  8
0
 62
     0
100
AcDbLine
 10
8.266236765592751
 20
7.893859344849822
 30
0.0
 11
7.140195249248201
 21
7.893859344849822
 31
0.0
  0
SOLID
  5
D5
330
D0
100
AcDbEntity
  8
0
 62
     0
100
AcDbTrace
 10
5.324153732903653
 20
7.923859344849822
 30
0.0
 11
5.324153732903653
 21
7.863859344849822
 31
0.0
 12
5.144153732903653
 22
7.893859344849822
 32
0.0
 13
5.144153732903653
 23
7.893859344849822
 33
0.0
  0
SOLID
  5
D6
330
D0
100
AcDbEntity
  8
0
 62
     0
100
AcDbTrace
 10
8.266236765592751
 20
7.923859344849822
 30
0.0
 11
8.266236765592751
 21
7.863859344849822
 31
0.0
 12
8.44623676559275
 22
7.893859344849822
 32
0.0
 13
8.44623676559275
 23
7.893859344849822
 33
0.0
  0
MTEXT
  5
D7
330
D0
100
AcDbEntity
  8
0
 62
     0
100
AcDbMText
 10
6.795195249248202
 20
7.893859344849822
 30
0.0
 40
0.18
 41
0.0
 71
     5
 72
     1
  1
\A1;3.30
1001
ACAD
1000
MTEXTBEGIN
1070
    73
1070
     1
1070
    44
1040
1.0
1070
    74
1070
     0
1000
MTEXTEND
  0
POINT
  5
D8
330
D0
100
AcDbEntity
  8
DEFPOINTS
 62
     0
100
AcDbPoint
 10
5.144153732903653
 20
7.401040718808015
 30
0.0
  0
POINT
  5
D9
330
D0
100
AcDbEntity
  8
DEFPOINTS
 62
     0
100
AcDbPoint
 10
8.44623676559275
 20
6.754216888907436
 30
0.0
  0
POINT
  5
DA
330
D0
100
AcDbEntity
  8
DEFPOINTS
 62
     0
100
AcDbPoint
 10
8.44623676559275
 20
7.893859344849822
 30
0.0
  0
ENDBLK
  5
DC
330
D0
100
AcDbEntity
  8
0
100
AcDbBlockEnd
  0
ENDSEC
  0
SECTION
  2
ENTITIES
  0
LWPOLYLINE
  5
BD
330
1F
100
AcDbEntity
  8
L
 62
     5
 48
0.116666
100
AcDbPolyline
 90
        2
 70
     0
 43
0.028125
 10
4.733019857937399
 20
4.063770876782594
 10
7.644128694144349
 20
4.063770876782594
  0
TEXT
  5
BE
330
1F
100
AcDbEntity
  8
L
 62
     3
 48
0.116666
100
AcDbText
 10
4.826755700618498
 20
4.157506719463579
 30
0.0
 40
0.140625
  1
2 1/4" RETAINER #2045
  7
REG
100
AcDbText
  0
TEXT
  5
BF
330
1F
100
AcDbEntity
  8
TX
 48
0.116666
100
AcDbText
 10
4.826755700618498
 20
3.876285034101609
 30
0.0
 40
0.09375
  1
SCALE : FULL SCALE
  7
REG
 11
4.826755700618498
 21
3.970035034101609
 31
0.0
100
AcDbText
 73
     3
  0
DIMENSION
  5
C1
330
1F
100
AcDbEntity
  8
0
100
AcDbDimension
  2
*D3
 10
4.501603659741313
 20
5.166040718808002
 30
0.0
 11
4.501603659741312
 21
6.293540718808
 31
0.0
 70
    32
  3
STANDARD
100
AcDbAlignedDimension
 13
5.164153732903635
 23
7.421040718807997
 33
0.0
 14
5.164153732903635
 24
5.166040718808002
 34
0.0
 50
90.0
100
AcDbRotatedDimension
  0
DIMENSION
  5
CF
330
1F
100
AcDbEntity
  8
0
100
AcDbDimension
  2
*D4
 10
8.44623676559275
 20
7.893859344849822
 30
0.0
 11
6.795195249248202
 21
7.893859344849822
 31
0.0
 70
    32
  3
STANDARD
100
AcDbAlignedDimension
 13
5.144153732903653
 23
7.401040718808015
 33
0.0
 14
8.44623676559275
 24
6.754216888907436
 34
0.0
100
AcDbRotatedDimension
  0
LWPOLYLINE
  5
2A5
330
1F
100
AcDbEntity
  8
L
 62
     5
100
AcDbPolyline
 90
       75
 70
     1
 43
0.0
 10
6.264153732903771
 20
5.286040718808006
 42
0.4142135623730951
 10
6.274153732903762
 20
5.276040718808015
 10
6.302282899710578
 20
5.276040718807968
 42
-0.3736917110095335
 10
6.36415373290368
 20
5.211040718807961
 10
6.304153732903735
 20
5.211040718807961
 10
6.294153732903744
 20
5.221040718807952
 10
6.284153732903753
 20
5.211040718807961
 10
6.240153732903657
 20
5.211040718808018
 42
-0.4142135623730951
 10
6.209153732903708
 20
5.242040718808024
 10
6.209153732903708
 20
5.685040718808007
 42
0.4142135623730951
 10
6.178153732903759
 20
5.716040718807956
 10
5.814462820924868
 20
5.716040718807954
 42
-1.647603200772529
 10
5.814462820924866
 20
5.77104071880802
 10
6.178153732903759
 20
5.77104071880802
 42
0.4142135623730951
 10
6.209153732903708
 20
5.802040718807969
 10
6.209153732903764
 20
7.304040718807922
 42
0.4142135623730951
 10
6.147153732903809
 20
7.366040718807933
 10
5.261153732903615
 20
7.366040718807933
 42
0.4142135623730951
 10
5.199153732903717
 20
7.304040718808035
 10
5.19915373290366
 20
6.463040718807991
 42
0.4142135623730951
 10
5.261153732903615
 20
6.401040718807979
 10
5.355153732903666
 20
6.401040718807979
 42
-0.4142135623730951
 10
5.386153732903615
 20
6.37004071880803
 10
5.386153732903614
 20
6.302040718807933
 42
-0.4142135623731034
 10
5.355153732903666
 20
6.271040718807983
 10
5.33615373290366
 20
6.271040718807983
 10
5.336153732903888
 20
6.341040718808033
 42
0.4142135623797547
 10
5.326153732903669
 20
6.351040718808024
 10
5.209153732903708
 20
6.351040718808024
 42
0.4142135623730951
 10
5.199153732903717
 20
6.341040718808033
 10
5.199153732903717
 20
5.231040718807943
 42
0.4142135623730951
 10
5.209153732903708
 20
5.221040718807952
 10
5.326153732903669
 20
5.221040718807952
 42
0.4142135623797547
 10
5.33615373290366
 20
5.231040718807943
 10
5.33615373290366
 20
5.301040718807993
 10
5.355153732903666
 20
5.301040718808049
 42
-0.4142135623741692
 10
5.386153732903615
 20
5.27004071880793
 10
5.386153732903444
 20
5.252040718808014
 42
0.4142135623741692
 10
5.417153732903791
 20
5.221040718807952
 10
5.468532316033297
 20
5.221040718807898
 42
-1.418484039146855
 10
5.488153732903704
 20
5.166040718808002
 10
5.164153732903635
 20
5.166040718808002
 42
-0.4142135623730951
 10
5.144153732903653
 20
5.186040718807984
 10
5.144153732903653
 20
7.401040718808015
 42
-0.4142135623730951
 10
5.164153732903635
 20
7.421040718807997
 10
7.619153732903789
 20
7.421040718807997
 42
-0.4142135623730951
 10
7.639153732903771
 20
7.401040718808015
 10
7.639153732903714
 20
6.889040718807958
 42
0.4142135623730951
 10
7.701153732903669
 20
6.827040718807946
 10
7.941153732903678
 20
6.827040718807946
 10
7.951153732903669
 20
6.817040718807955
 10
7.96115373290366
 20
6.827040718807946
 10
8.326153732903669
 20
6.827040718807965
 42
-0.2018206647647281
 10
8.437689177401264
 20
6.780108792141689
 42
-1.000000000005196
 10
8.393360987921427
 20
6.736761224534567
 42
2.452921705871318
 10
8.393360987921397
 20
6.605320213081342
 42
-0.9999999999961508
 10
8.43768917740121
 20
6.561972645474358
 42
-0.8049465446479915
 10
8.17927333555519
 20
6.723596868540596
 42
0.5188381136474933
 10
8.15008556428723
 20
6.765040718807934
 10
7.701153732903669
 20
6.765040718807934
 42
0.4142135623730951
 10
7.639153732903771
 20
6.703040718808036
 10
7.639153732903942
 20
5.606040718807943
 42
-0.4142135623741692
 10
7.577153732903646
 20
5.544040718807931
 10
7.52715373290369
 20
5.544040718807909
 42
0.3505665198452807
 10
7.444153732903608
 20
5.482040718808033
 10
7.444153732903608
 20
5.231040718807943
 42
-0.4142135623730951
 10
7.424153732903626
 20
5.211040718807961
 10
7.351024566096737
 20
5.211040718808009
 42
-0.3736917110095334
 10
7.289153732903635
 20
5.276040718808015
 10
7.37915373290378
 20
5.276040718808015
 42
0.4142135623730951
 10
7.389153732903771
 20
5.286040718808006
 10
7.389153732903771
 20
5.53404071880794
 42
0.4142135623730951
 10
7.37915373290378
 20
5.544040718807931
 10
6.274153732903762
 20
5.544040718807931
 42
0.4142135623730951
 10
6.264153732903771
 20
5.53404071880794
  0
LWPOLYLINE
  5
2E2
330
1F
100
AcDbEntity
  8
L
 62
     5
100
AcDbPolyline
 90
        2
 70
     1
 43
0.0
 10
6.264153732903714
 20
5.661040718808006
 10
6.264153732903714
 20
5.661040718808006
  0
LWPOLYLINE
  5
2E4
330
1F
100
AcDbEntity
  8
L
 62
     5
100
AcDbPolyline
 90
        2
 70
     1
 43
0.0
 10
6.326153732903669
 20
5.599040718807938
 10
6.326153732903669
 20
5.599040718807994
  0
LWPOLYLINE
  5
2F1
330
1F
100
AcDbEntity
  8
L
 62
     5
100
AcDbPolyline
 90
        2
 70
     1
 43
0.0
 10
7.522153732903809
 20
5.599040718807994
 10
7.522153732903809
 20
5.599040718807938
  0
LWPOLYLINE
  5
2F2
330
1F
100
AcDbEntity
  8
L
 62
     5
100
AcDbPolyline
 90
        2
 70
     1
 43
0.0
 10
7.584153732903764
 20
5.661040718808006
 10
7.584153732903708
 20
5.661040718808006
  0
LWPOLYLINE
  5
2F3
330
1F
100
AcDbEntity
  8
L
 62
     5
100
AcDbPolyline
 90
       57
 70
     1
 43
0.0
 10
6.29515373290372
 20
6.862040718808028
 10
6.385153732903638
 20
6.862040718808028
 42
0.9999999999999998
 10
6.385153732903638
 20
6.920040718808021
 10
6.29515373290372
 20
6.920040718808021
 10
6.29515373290372
 20
6.920040718808022
 42
-0.4142135623730951
 10
6.264153732903771
 20
6.95104071880797
 10
6.264153732903771
 20
7.304040718807922
 10
6.264153732903714
 20
7.304040718807922
 42
-0.4142135623730951
 10
6.326153732903669
 20
7.366040718807877
 10
6.326153732903669
 20
7.366040718807933
 10
6.352153732903737
 20
7.366040718807933
 10
6.352153732903737
 20
7.366040718807934
 42
-0.4142135623730951
 10
6.383153732903686
 20
7.335040718807984
 10
6.383153732903686
 20
7.215540718807968
 10
6.383153732903572
 20
7.215540718807968
 42
0.9999999999999998
 10
6.438153732903749
 20
7.215540718807968
 10
6.438153732903749
 20
7.335040718807984
 42
-0.4142135623730951
 10
6.469153732903698
 20
7.366040718807933
 10
6.659153732903753
 20
7.366040718807933
 10
6.674153732903626
 20
7.381040718808034
 10
6.689153732903726
 20
7.366040718807933
 10
7.159153732903753
 20
7.366040718807933
 10
7.174153732903626
 20
7.381040718808034
 10
7.189153732903726
 20
7.366040718807933
 10
7.258153732903686
 20
7.366040718807933
 42
-0.4142135623730951
 10
7.289153732903635
 20
7.335040718807984
 10
7.289153732903635
 20
7.215540718807968
 10
7.289153732903521
 20
7.215540718807968
 42
0.9999999999999998
 10
7.344153732903698
 20
7.215540718807968
 10
7.344153732903698
 20
7.335040718807984
 42
-0.4142135623730951
 10
7.375153732903648
 20
7.366040718807933
 10
7.522153732903809
 20
7.366040718807933
 10
7.522153732903809
 20
7.366040718807877
 42
-0.4142135623730951
 10
7.584153732903764
 20
7.304040718807922
 10
7.584153732903708
 20
7.304040718807922
 10
7.584153732903708
 20
6.95104071880797
 42
-0.4142135623730951
 10
7.553153732903759
 20
6.920040718808021
 10
7.454153732903598
 20
6.920040718808021
 42
-0.4142135623730951
 10
7.444153732903608
 20
6.930040718808012
 10
7.444153732903608
 20
6.992540718808012
 42
0.9999999999999998
 10
7.389153732903771
 20
6.992540718808012
 10
7.389153732903771
 20
6.930040718808012
 42
-0.4142135623730951
 10
7.37915373290378
 20
6.920040718808021
 10
7.318153732903631
 20
6.920040718808021
 42
0.9999999999999998
 10
7.318153732903631
 20
6.862040718808028
 10
7.553153732903759
 20
6.862040718808028
 10
7.553153732903759
 20
6.862040718807971
 42
-0.4142135623730951
 10
7.584153732903708
 20
6.831040718807965
 10
7.584153732903708
 20
5.661040718808006
 10
7.584153732903764
 20
5.661040718808006
 42
-0.4142135623736322
 10
7.522153732903809
 20
5.599040718807938
 10
7.522153732903809
 20
5.599040718807994
 10
6.326153732903669
 20
5.599040718807994
 10
6.326153732903669
 20
5.599040718807938
 42
-0.4142135623736321
 10
6.264153732903771
 20
5.661040718808006
 10
6.264153732903771
 20
6.831040718807965
 10
6.264153732903714
 20
6.831040718807965
 42
-0.4142135623730951
  0
LWPOLYLINE
  5
2F6
330
1F
100
AcDbEntity
  8
L
 62
     5
100
AcDbPolyline
 90
        2
 70
     1
 43
0.0
 10
6.264153732903772
 20
6.95104071880797
 10
6.264153732903772
 20
6.95104071880797
  0
LWPOLYLINE
  5
2F8
330
1F
100
AcDbEntity
  8
L
 62
     5
100
AcDbPolyline
 90
        2
 70
     1
 43
0.0
 10
6.29515373290372
 20
6.920040718808022
 10
6.29515373290372
 20
6.920040718808021
  0
LWPOLYLINE
  5
2F9
330
1F
100
AcDbEntity
  8
L
 62
     5
100
AcDbPolyline
 90
        2
 70
     1
 43
0.0
 10
6.29515373290372
 20
6.862040718807971
 10
6.29515373290372
 20
6.862040718807971
  0
LWPOLYLINE
  5
2FB
330
1F
100
AcDbEntity
  8
L
 62
     5
100
AcDbPolyline
 90
        2
 70
     1
 43
0.0
 10
6.264153732903714
 20
6.831040718807965
 10
6.264153732903771
 20
6.831040718807965
  0
LWPOLYLINE
  5
2FD
330
1F
100
AcDbEntity
  8
L
 62
     5
100
AcDbPolyline
 90
        2
 70
     1
 43
0.0
 10
6.264153732903714
 20
7.304040718807922
 10
6.264153732903771
 20
7.304040718807922
  0
LWPOLYLINE
  5
2FE
330
1F
100
AcDbEntity
  8
L
 62
     5
100
AcDbPolyline
 90
        2
 70
     1
 43
0.0
 10
6.438153732903636
 20
7.215540718807968
 10
6.438153732903636
 20
7.215540718807968
  0
LWPOLYLINE
  5
300
330
1F
100
AcDbEntity
  8
L
 62
     5
100
AcDbPolyline
 90
        2
 70
     1
 43
0.0
 10
6.383153732903572
 20
7.215540718807968
 10
6.383153732903686
 20
7.215540718807968
  0
LWPOLYLINE
  5
307
330
1F
100
AcDbEntity
  8
L
 62
     5
100
AcDbPolyline
 90
        2
 70
     1
 43
0.0
 10
7.344153732903585
 20
7.215540718807968
 10
7.344153732903585
 20
7.215540718807968
  0
LWPOLYLINE
  5
309
330
1F
100
AcDbEntity
  8
L
 62
     5
100
AcDbPolyline
 90
        2
 70
     1
 43
0.0
 10
7.289153732903521
 20
7.215540718807968
 10
7.289153732903635
 20
7.215540718807968
  0
LWPOLYLINE
  5
310
330
1F
100
AcDbEntity
  8
L
 62
     5
100
AcDbPolyline
 90
        2
 70
     1
 43
0.0
 10
7.584153732903764
 20
6.831040718807965
 10
7.584153732903764
 20
6.831040718807965
  0
LWPOLYLINE
  5
312
330
1F
100
AcDbEntity
  8
L
 62
     5
100
AcDbPolyline
 90
        2
 70
     1
 43
0.0
 10
7.553153732903759
 20
6.862040718807971
 10
7.553153732903759
 20
6.862040718808028
  0
LWPOLYLINE
  5
314
330
1F
100
AcDbEntity
  8
L
 62
     5
100
AcDbPolyline
 90
        2
 70
     1
 43
0.0
 10
7.584153732903708
 20
7.304040718807922
 10
7.584153732903764
 20
7.304040718807922
  0
LWPOLYLINE
  5
321
330
1F
100
AcDbEntity
  8
L
 62
     5
100
AcDbPolyline
 90
        2
 70
     1
 43
0.0
 10
6.326153732903669
 20
7.366040718807933
 10
6.326153732903669
 20
7.366040718807877
  0
LWPOLYLINE
  5
322
330
1F
100
AcDbEntity
  8
L
 62
     5
100
AcDbPolyline
 90
        2
 70
     1
 43
0.0
 10
6.383153732903687
 20
7.335040718807984
 10
6.383153732903687
 20
7.335040718807984
  0
LWPOLYLINE
  5
324
330
1F
100
AcDbEntity
  8
L
 62
     5
100
AcDbPolyline
 90
        2
 70
     1
 43
0.0
 10
6.352153732903737
 20
7.366040718807934
 10
6.352153732903737
 20
7.366040718807933
  0
LWPOLYLINE
  5
32F
330
1F
100
AcDbEntity
  8
L
 62
     5
100
AcDbPolyline
 90
        2
 70
     1
 43
0.0
 10
7.522153732903809
 20
7.366040718807877
 10
7.522153732903809
 20
7.366040718807933
  0
ENDSEC
  0
SECTION
  2
OBJECTS
  0
DICTIONARY
  5
C
330
0
100
AcDbDictionary
  3
ACAD_GROUP
350
D
  3
ACAD_LAYOUT
350
1A
  3
ACAD_MLINESTYLE
350
17
  3
ACAD_PLOTSETTINGS
350
19
  3
ACAD_PLOTSTYLENAME
350
E
  3
ACDBHEADERROUNDTRIPXREC
350
357
  0
DICTIONARY
  5
379
330
1F
100
AcDbDictionary
280
     1
  3
ACAD_LAYOUTSELFREF
360
37A
  0
DICTIONARY
  5
377
330
1B
100
AcDbDictionary
280
     1
  3
ACAD_LAYOUTSELFREF
360
378
  0
DICTIONARY
  5
D
102
{ACAD_REACTORS
330
C
102
}
330
C
100
AcDbDictionary
  0
DICTIONARY
  5
1A
102
{ACAD_REACTORS
330
C
102
}
330
C
100
AcDbDictionary
  0
DICTIONARY
  5
17
102
{ACAD_REACTORS
330
C
102
}
330
C
100
AcDbDictionary
  3
STANDARD
350
18
  0
DICTIONARY
  5
19
102
{ACAD_REACTORS
330
C
102
}
330
C
100
AcDbDictionary
  0
ACDBDICTIONARYWDFLT
  5
E
102
{ACAD_REACTORS
330
C
102
}
330
C
100
AcDbDictionary
281
     1
  3
Normal
350
F
100
AcDbDictionaryWithDefault
340
F
  0
DICTIONARY
  5
357
102
{ACAD_REACTORS
330
C
102
}
330
C
100
AcDbDictionary
  3
CEPSNTYPE
350
361
  3
FINGERPRINTGUID
350
362
  3
HYPERLINKBASE
350
35A
  3
INSUNITS
350
360
  3
LAYOUTDICT
350
35C
  3
LWETCUNION
350
35F
  3
PLOTSETDICT
350
35D
  3
PLOTSTYLNAMDICT
350
35E
  3
PSVPSCALE
350
364
  3
PUCSBASE
350
367
  3
PUCSORGBACK
350
36D
  3
PUCSORGBOTTOM
350
369
  3
PUCSORGFRONT
350
36C
  3
PUCSORGLEFT
350
36A
  3
PUCSORGRIGHT
350
36B
  3
PUCSORGTOP
350
368
  3
PUCSORTHOREF
350
365
  3
PUCSORTHOVIEW
350
366
  3
STYLESHEET
350
35B
  3
TSTACKALIGN
350
358
  3
TSTACKSIZE
350
359
  3
UCSBASE
350
370
  3
UCSORGBACK
350
376
  3
UCSORGBOTTOM
350
372
  3
UCSORGFRONT
350
375
  3
UCSORGLEFT
350
373
  3
UCSORGRIGHT
350
374
  3
UCSORGTOP
350
371
  3
UCSORTHOREF
350
36E
  3
UCSORTHOVIEW
350
36F
  3
VERSIONGUID
350
363
  0
XRECORD
  5
37A
102
{ACAD_REACTORS
330
379
102
}
330
379
100
AcDbXrecord
340
1F
  0
XRECORD
  5
378
102
{ACAD_REACTORS
330
377
102
}
330
377
100
AcDbXrecord
340
1B
  0
MLINESTYLE
  5
18
102
{ACAD_REACTORS
330
17
102
}
330
17
100
AcDbMlineStyle
  2
STANDARD
 70
     0
  3

 62
   256
 51
90.0
 52
90.0
 71
     2
 49
0.5
 62
   256
  6
BYLAYER
 49
-0.5
 62
   256
  6
BYLAYER
  0
ACDBPLACEHOLDER
  5
F
102
{ACAD_REACTORS
330
E
102
}
330
E
100
AcDbPlaceHolder
280
     0
  0
XRECORD
  5
361
102
{ACAD_REACTORS
330
357
102
}
330
357
100
AcDbXrecord
 90
        0
  0
XRECORD
  5
362
102
{ACAD_REACTORS
330
357
102
}
330
357
100
AcDbXrecord
  1
{DC175E3D-AE85-11D5-9A93-0040C77E826B}
  0
XRECORD
  5
35A
102
{ACAD_REACTORS
330
357
102
}
330
357
100
AcDbXrecord
  1

  0
XRECORD
  5
360
102
{ACAD_REACTORS
330
357
102
}
330
357
100
AcDbXrecord
 90
        1
  0
XRECORD
  5
35C
102
{ACAD_REACTORS
330
357
102
}
330
357
100
AcDbXrecord
340
1A
  0
XRECORD
  5
35F
102
{ACAD_REACTORS
330
357
102
}
330
357
100
AcDbXrecord
 90
    10781
  0
XRECORD
  5
35D
102
{ACAD_REACTORS
330
357
102
}
330
357
100
AcDbXrecord
340
19
  0
XRECORD
  5
35E
102
{ACAD_REACTORS
330
357
102
}
330
357
100
AcDbXrecord
340
E
  0
XRECORD
  5
364
102
{ACAD_REACTORS
330
357
102
}
330
357
100
AcDbXrecord
 40
0.0
  0
XRECORD
  5
367
102
{ACAD_REACTORS
330
357
102
}
330
357
100
AcDbXrecord
340
0
  0
XRECORD
  5
36D
102
{ACAD_REACTORS
330
357
102
}
330
357
100
AcDbXrecord
 10
0.0
 20
0.0
 30
0.0
  0
XRECORD
  5
369
102
{ACAD_REACTORS
330
357
102
}
330
357
100
AcDbXrecord
 10
0.0
 20
0.0
 30
0.0
  0
XRECORD
  5
36C
102
{ACAD_REACTORS
330
357
102
}
330
357
100
AcDbXrecord
 10
0.0
 20
0.0
 30
0.0
  0
XRECORD
  5
36A
102
{ACAD_REACTORS
330
357
102
}
330
357
100
AcDbXrecord
 10
0.0
 20
0.0
 30
0.0
  0
XRECORD
  5
36B
102
{ACAD_REACTORS
330
357
102
}
330
357
100
AcDbXrecord
 10
0.0
 20
0.0
 30
0.0
  0
XRECORD
  5
368
102
{ACAD_REACTORS
330
357
102
}
330
357
100
AcDbXrecord
 10
0.0
 20
0.0
 30
0.0
  0
XRECORD
  5
365
102
{ACAD_REACTORS
330
357
102
}
330
357
100
AcDbXrecord
340
0
  0
XRECORD
  5
366
102
{ACAD_REACTORS
330
357
102
}
330
357
100
AcDbXrecord
 70
     0
  0
XRECORD
  5
35B
102
{ACAD_REACTORS
330
357
102
}
330
357
100
AcDbXrecord
  1

  0
XRECORD
  5
358
102
{ACAD_REACTORS
330
357
102
}
330
357
100
AcDbXrecord
 90
        1
  0
XRECORD
  5
359
102
{ACAD_REACTORS
330
357
102
}
330
357
100
AcDbXrecord
 90
       70
  0
XRECORD
  5
370
102
{ACAD_REACTORS
330
357
102
}
330
357
100
AcDbXrecord
340
0
  0
XRECORD
  5
376
102
{ACAD_REACTORS
330
357
102
}
330
357
100
AcDbXrecord
 10
0.0
 20
0.0
 30
0.0
  0
XRECORD
  5
372
102
{ACAD_REACTORS
330
357
102
}
330
357
100
AcDbXrecord
 10
0.0
 20
0.0
 30
0.0
  0
XRECORD
  5
375
102
{ACAD_REACTORS
330
357
102
}
330
357
100
AcDbXrecord
 10
0.0
 20
0.0
 30
0.0
  0
XRECORD
  5
373
102
{ACAD_REACTORS
330
357
102
}
330
357
100
AcDbXrecord
 10
0.0
 20
0.0
 30
0.0
  0
XRECORD
  5
374
102
{ACAD_REACTORS
330
357
102
}
330
357
100
AcDbXrecord
 10
0.0
 20
0.0
 30
0.0
  0
XRECORD
  5
371
102
{ACAD_REACTORS
330
357
102
}
330
357
100
AcDbXrecord
 10
0.0
 20
0.0
 30
0.0
  0
XRECORD
  5
36E
102
{ACAD_REACTORS
330
357
102
}
330
357
100
AcDbXrecord
340
0
  0
XRECORD
  5
36F
102
{ACAD_REACTORS
330
357
102
}
330
357
100
AcDbXrecord
 70
     0
  0
XRECORD
  5
363
102
{ACAD_REACTORS
330
357
102
}
330
357
100
AcDbXrecord
  1
{1E8DA87C-0E62-49B4-AB6E-1D404D1928FE}
  0
ENDSEC
  0
EOF
